<?xml version="1.0" standalone="no"?>
<!DOCTYPE svg PUBLIC "-//W3C//DTD SVG 1.1//EN" "http://www.w3.org/Graphics/SVG/1.1/DTD/svg11.dtd" >
<!--
2013-9-30: Created.
-->
<svg>
<metadata>
Created by iconfont
</metadata>
<defs>

<font id="iconfont" horiz-adv-x="1024" >
  <font-face
    font-family="iconfont"
    font-weight="500"
    font-stretch="normal"
    units-per-em="1024"
    ascent="896"
    descent="-128"
  />
    <missing-glyph />
    
    <glyph glyph-name="x" unicode="x" horiz-adv-x="1001"
d="M281 543q-27 -1 -53 -1h-83q-18 0 -36.5 -6t-32.5 -18.5t-23 -32t-9 -45.5v-76h912v41q0 16 -0.5 30t-0.5 18q0 13 -5 29t-17 29.5t-31.5 22.5t-49.5 9h-133v-97h-438v97zM955 310v-52q0 -23 0.5 -52t0.5 -58t-10.5 -47.5t-26 -30t-33 -16t-31.5 -4.5q-14 -1 -29.5 -0.5
t-29.5 0.5h-32l-45 128h-439l-44 -128h-29h-34q-20 0 -45 1q-25 0 -41 9.5t-25.5 23t-13.5 29.5t-4 30v167h911zM163 247q-12 0 -21 -8.5t-9 -21.5t9 -21.5t21 -8.5q13 0 22 8.5t9 21.5t-9 21.5t-22 8.5zM316 123q-8 -26 -14 -48q-5 -19 -10.5 -37t-7.5 -25t-3 -15t1 -14.5
t9.5 -10.5t21.5 -4h37h67h81h80h64h36q23 0 34 12t2 38q-5 13 -9.5 30.5t-9.5 34.5q-5 19 -11 39h-368zM336 498v228q0 11 2.5 23t10 21.5t20.5 15.5t34 6h188q31 0 51.5 -14.5t20.5 -52.5v-227h-327z" />
    

    
    <glyph glyph-name="camera" unicode="&#58955;" d="M547.46726225 489.46875q56.01897345 0 95.82589298-39.77678595t39.77678595-95.82589298-39.77678595-95.82589297-95.82589298-39.77678594-95.82589297 39.77678594-39.77678595 95.82589298 39.77678595 95.82589297 95.82589298 39.77678595zM878.9404763 685.33928595q49.90178595 0 85.21875001-35.31696405t35.31696405-85.21875l0-421.875q0-49.90178595-35.31696405-85.21875t-85.21875-35.31696406l-662.94642893 0q-49.90178595 0-85.21875 35.31696406t-35.31696405 85.21875l0 421.875q0 49.90178595 35.31696405 85.21875t85.21875 35.31696405l105.46875 0 24.01674143 64.03459845q8.94977655 23.08258906 32.72544607 39.77678595t48.7265625 16.72433047l241.07142893 0q24.95089298 0 48.7265625-16.72433047t32.72544607-39.77678595l24.01674143-64.03459845 105.46875 0zM547.46726225 142.92857106999998q87.1171875 0 149.01227655 61.92522345t61.92522346 149.01227655-61.92522345 149.01227655-149.01227655 61.92522345-149.01227655-61.92522345-61.92522346-149.01227655 61.92522345-149.01227655 149.01227655-61.92522345z"  horiz-adv-x="1098" />

    
    <glyph glyph-name="search" unicode="&#58893;" d="M940.571 43.307000000000016l-214.475 214.722c44.778 60.855 69.263 134.077 69.263 211.012 0 95.732-37.354 185.78-104.889 253.311-67.781 67.536-157.825 104.889-253.557 104.889s-185.78-37.354-253.311-104.889c-139.518-139.518-139.518-366.859 0-506.626 67.536-67.536 157.579-104.889 253.311-104.889 77.18 0 150.155 24.487 211.257 69.263l214.475-214.722c21.52-21.52 56.403-21.52 77.676 0 21.77 21.52 21.77 56.403 0.25 77.921zM252.866 284.744c-101.425 101.673-101.425 266.916 0 368.342 49.227 49.227 114.535 76.192 184.295 76.192 69.511 0 134.819-26.966 184.047-76.192 49.227-49.227 76.443-114.535 76.443-184.295 0-69.762-27.211-135.065-76.443-184.295-49.227-49.227-114.535-76.192-184.047-76.192-69.762 0.25-135.065 27.211-184.295 76.443z"  horiz-adv-x="1024" />

    
    <glyph glyph-name="tencent-weibo" unicode="&#59015;" d="M333.89062263 761.0574980700001c-136.09024096 0-246.73628324-111.97788172-246.73628322-249.57594601 0-49.24474174 14.19575106-95.10990887 38.61138355-133.87591905 18.97465406-15.74201749 29.51062311-4.77377727 34.63807678 5.17187679h-0.01964868c2.26130788 10.27968179-0.94911714 18.30061858-2.92252901 22.07658415-0.47669429 0.77484181-0.90127685 1.52576346-1.37540827 2.32025394-0.01964871 0-0.01964871 0.01452295-0.01964868 0.01452294v0.05040316c-17.64281462 30.64426707-27.79178993 66.25281827-27.79178993 104.24654952 0 114.67573222 92.24547166 207.94208144 205.63037043 207.94208146s205.60047025-93.27403786 205.60047022-207.94208146c0-114.68256655-92.2232601-207.984796-205.60047022-207.98479598-14.64852519 0-28.88442792 1.70431025-42.62655054 4.66699089v-0.05040316c0 0-11.24332188 2.02808647-18.42021931 0-0.94911714-0.32548482-1.85124827-0.67403548-2.88066872-1.14218685-0.05040316-0.01452295-0.05040316-0.05040316-0.12045503-0.07090616l-0.0196487-0.02904588c-8.95809386-4.08607314-18.28011559-12.59737287-9.53474017-29.56529772 0 0 9.32031316-6.65919717 11.79775663-7.32127259 19.73497292-5.22142568 40.46177751-8.09269722 61.81306873-8.09269721 136.06290364 0 246.70894594 111.94371009 246.70894592 249.58107176-0.01452295 137.59977289-110.66056521 249.57850888-246.72176027 249.57850887v1e-8zM413.48831827 561.15087636c23.4827469-35.14637983 16.99355358-85.37953611-16.33574962-112.04280783-11.55940949-10.8682882-28.1112947-16.27594928-43.46802702-18.39544487-18.26900983-1.67953581-35.37362122 2.41080876-51.32750282 11.41418006-4.03823286 2.38945152-8.05852559 5.2376572-11.50644346 8.42587064-1.1481669 0.22809565-0.58262636 0.28362455-1.709436-0.78936474-0.76373602-0.7278558-1.42581144-1.62998693-2.11778703-2.4287489-2.57739549-2.97207786-5.060819-6.0398363-7.52971954-9.10674044-4.58156184-5.68957706-8.99226548-11.50729774-13.31412289-17.394216-9.04779439-12.32143694-17.14220019-25.19474575-25.31178358-38.1005176-17.57703424-27.77299553-31.35930851-58.66842411-42.77861431-89.41691466-11.69011599-31.48318069-20.5670522-63.97357029-26.95458489-96.93723702-7.37680147-38.05609449-11.12542974-76.41802509-12.89381179-115.10885769-1.12253818-24.57538488-0.15377236-49.10634664 0.39211949-73.6740429 0.8038877-9.08025744 1.31475362-19.00540853-7.51348802-24.4019638-7.69203481-4.70030826-18.95073393-3.16685616-25.19901718 3.26766248-5.93561282 6.11074244-5.5733935 14.7237028-5.86983244 22.64725043-0.33061056 8.84020172-0.66976403 17.67100621-0.82524497 26.51804229-0.64755248 37.02752831 1.2976678 73.83550387 5.05483898 110.65800233 3.55982998 34.90546984 10.13445235 69.72721915 19.14209506 103.62291721 8.74708402 32.91838932 20.11769521 64.8398212 33.98112712 95.94369675 13.33804303 29.91641127 29.90615979 59.22285887 49.21227869 85.71100096 8.68130362 11.91052302 17.19089477 23.87059492 26.53683666 35.28819214 2.49111213 3.04298401 4.98734999 6.10219954 7.56987125 9.06488019 1.3907855 1.59325244 2.74739938 3.21811362 4.15868784 4.79257168 0.7936362 0.88419102 1.58300095 1.76923635 2.36980281 2.65684454 0.84660223 0.95424286-1.55395505 5.89546114-1.95461745 7.29137241-5.8903354 20.45770299-4.00320691 43.32792331 6.03812771 62.21373112 12.45128913 23.41269503 35.17286287 40.48740625 61.66185924 44.20698861 31.83087705 4.46964973 62.02493286-10.027666 80.49128385-35.92976457zM624.48790668 716.67965129c-33.87946652-64.83554974-9.2519699-145.41909703 54.84888971-179.68299443 22.87022035-12.21379629 47.81038741-16.85515846 71.92360093-14.89712382 12.0531896 5.13514228 9.58343477 12.84084577 6.22778031 17.80427559v-0.03502593c-4.27743428 3.64611335-8.81628156 4.12024478-11.05281502 4.12024478-0.42543683-0.03502593-0.97901733-0.0845748-1.40445417-0.08457481v-0.01452294c-18.73459834-0.74408733-37.80237009 3.23519945-55.47252202 12.71184784-53.44358127 28.5307515-73.89274134 95.71560109-45.71993771 149.71105428 28.26933852 54.03218768 94.62808884 74.74532361 148.07167012 46.20090344 53.42136972-28.5307515 73.89274134-95.6780123 45.64817726-149.68200837-3.63927902-6.98639056-8.00897672-13.33804303-12.81094558-19.17455814 0-0.01452295 0.07090616-0.01452295 0.07090615-0.01452294s-3.73068814-4.83016047-4.61146202-8.76075267c-0.09909774-0.53136891-0.14181227-1.08409507-0.19136114-1.65988712 0.05040316-0.01452295 0.05040316-0.01452295 0.05040316-0.01452294 0-0.05723749-0.05040316-0.05723749-0.05040316-0.05723747-0.33231915-5.30600047 1.38309688-11.86695421 11.46287463-11.87464282 0 0 5.39740958 2.75252512 6.29954071 3.75119113 7.37082146 8.130286 13.84036607 17.27974102 19.18822678 27.42273628 33.87946652 64.83554974 9.20071244 145.45326866-54.82667815 179.68299442-64.14528275 34.20067989-143.84293042 9.35875627-177.64978222-55.45714479v0zM737.37475386 704.79817416c25.07941647 2.91313179 58.62485527-24.80518911 48.20763265-52.99678716-1.89225423-8.70266089-5.90912982-16.93887897-12.34877423-23.21791672-11.63202422-11.16728998-16.7586236-7.30931253-9.55353457-23.500687 17.80854707-40.02779775 46.01381375-76.1369634 79.98725225-103.76131229 14.95094417-12.15912168 30.45888595-23.44601237 46.96293088-33.42840096 11.63458707-7.03679373 23.59124181-13.35940031 35.70508607-19.52140021 5.62977671-2.79267679 14.95948705-4.9574498 14.95948707-12.76139671 0-9.64921514-8.5599943-10.78713056-16.16745432-9.56891181-38.8377706 15.32341498-76.73582129 42.19171648-107.41853145 70.30386548-35.26939772 32.31440569-53.48287864 68.57819797-76.48978551 109.0015324-5.20519414 9.14432925-0.50232303 8.70266089-12.40686604 12.52817531-8.22682087 2.74141935-15.50879608 7.62625442-20.92756295 14.42897245-6.9359874 7.97651365-7.70826635 16.79962956-9.81665614 26.50693648-0.0008543 22.48237229 15.60020521 43.88919239 39.30250481 45.98647644z"  horiz-adv-x="1024" />

    
    <glyph glyph-name="addr" unicode="&#58907;" d="M506.368234 831.879634c-187.767478 0-340.543-152.767336-340.543-340.544023 0-175.832657 279.611256-515.803629 311.499523-553.99137l58.087976 0c31.889291 38.187741 311.4985 378.158712 311.4985 553.99137C846.911234 679.112298 694.135712 831.879634 506.368234 831.879634zM506.368234 310.467263c-94.040816 0-170.272012 76.230172-170.272012 170.273035 0 94.039793 76.230172 170.269965 170.272012 170.269965 94.04184 0 170.272012-76.230172 170.272012-170.269965C676.639223 386.698458 600.410074 310.467263 506.368234 310.467263z"  horiz-adv-x="1024" />

    
    <glyph glyph-name="time" unicode="&#58974;" d="M547.15625028 630.09375027l-70.31249974 0 0-222.99609402-18.84374971-18.84374973L476.84374973 369.4453125 476.84374973 348.84374973l20.56640625 0 159.46875-159.43359348 49.71093777 49.71093777L547.15625027 398.5546875 547.15625028 630.09375027zM512 805.875C279.01953125 805.875 90.125 617.01562527 90.125 384c0-232.98046874 188.89453125-421.875 421.875-421.875 232.98046874 0 421.875 188.89453125 421.875 421.875C933.875 617.01562527 744.98046875 805.875 512 805.875zM512 32.43749973000001C317.83203125 32.43749973000001 160.43749973 189.86718777 160.43749973 384S317.83203125 735.56250027 512 735.56250027c194.16796875 0 351.56250027-157.42968723 351.56250027-351.56250027S706.16796875 32.43749973000001 512 32.43749973000001z"  horiz-adv-x="1024" />

    
    <glyph glyph-name="edit" unicode="&#59340;" d="M337.62558312 39.800483439999994l-169.81669406 169.81669406 469.40259 469.40259 169.81669407-169.81669406-469.40259-469.40259ZM916.480625 698.263125l-90.215625 90.21375c-21.980625 21.9825-59.17125 20.43-83.07-3.46875l-84.75375-84.755625 169.816875-169.815 84.75375 84.75375C936.905 639.0899999999999 938.459375 676.2825 916.480625 698.263125zM152.039375 182.90250000000003L92-36 310.881875 24.03937499999995Z"  horiz-adv-x="1024" />

    
    <glyph glyph-name="home" unicode="&#59432;" d="M918.90838308 442.39291792l-397.68215704 289.22097675c-9.30576247 6.78710882-21.89903077 6.78710881-31.20479325 1e-8l-397.68215704-289.22097674c-11.82441614-8.58993459-14.44911837-25.18653662-5.83267164-37.01095275 8.61644674-11.85092828 25.16002446-14.42260622 37.03746489-5.85918378l52.33497187 38.0714385 0-363.69358868c0-14.66121551 11.87744042-26.51214381 26.5121438-26.5121438l214.08556121 0c14.63470338 0 26.51214378 11.85092828 26.51214379 26.5121438l0 249.02856673 125.26987947 0 0-249.02856673c0-14.66121551 11.87744042-26.51214381 26.51214381-26.5121438l214.0855612 0c14.63470338 0 26.51214378 11.85092828 26.51214381 26.5121438L835.36861796 437.56770777l52.33497187-38.0714385c4.71916159-3.42006655 10.18066323-5.06381947 15.5626284-5.06381947 8.19225245 0 16.2784563 3.79123657 21.47483648 10.92300325C933.3840136 417.17986918 930.73279921 433.77647121 918.90838308 442.39291792zM782.34433036 100.38626289000001l-161.0612736 0 0 249.02856673c0 14.66121551-11.87744042 26.51214381-26.51214381 26.51214381l-178.29416707 0c-14.63470338 0-26.51214378-11.85092828-26.5121438-26.51214381l0-249.02856673-161.0612736-1e-8L228.90332847 476.142877l276.73375702 201.25368361 276.73375698-201.25368361L782.3708425 100.38626288z"  horiz-adv-x="1024" />

    
    <glyph glyph-name="play" unicode="&#58922;" d="M512 896C229.23 896 0 666.77 0 384c0-282.77 229.23-512 512-512 282.77 0 512 229.23 512 512C1024 666.77 794.77 896 512 896zM512-64C264.576-64 64 136.57600000000002 64 384S264.576 832 512 832s448-200.576 448-448S759.424-64 512-64zM661.27 416.077c30.484-17.6 30.484-46.4 0-64L439.426 223.99900000000002C408.942 206.399 384 220.79999999999995 384 256L384 512.158c0 35.2 24.941 49.6 55.426 32L661.27 416.077z"  horiz-adv-x="1024" />

    
    <glyph glyph-name="calendar" unicode="&#59019;" d="M842-44.66666667000004l-660 0c-33.12 0-60 26.88-60 60l0 660c0 33.16000031 26.88 60 60 60l60 0 0-30c0-49.72000031 40.27999969-90 90-90s90 40.27999969 90 90l0 30 180 0 0-30c0-49.72000031 40.32-90 90-90s90 40.27999969 90 90l0 30 60 0c33.12 0 60-26.83999969 60-60l0-660c0-33.12-26.88-60-60-60zM842 525.33333333l-660 0 0-510 660 0 0 510zM332 375.33333332999996l-90 0 0 90 90 0 0-90zM332 225.33333332999996l-90 0 0 90 90 0 0-90zM332 75.33333332999996l-90 0 0 90 90 0 0-90zM482 375.33333332999996l-90 0 0 90 90 0 0-90zM482 225.33333332999996l-90 0 0 90 90 0 0-90zM482 75.33333332999996l-90 0 0 90 90 0 0-90zM632 375.33333332999996l-90 0 0 90 90 0 0-90zM632 225.33333332999996l-90 0 0 90 90 0 0-90zM632 75.33333332999996l-90 0 0 90 90 0 0-90zM782 375.33333332999996l-90 0 0 90 90 0 0-90zM782 225.33333332999996l-90 0 0 90 90 0 0-90zM782 75.33333332999996l-90 0 0 90 90 0 0-90zM691.08000031 645.33333333c-32.64 0-59.08000031 26.47999969-59.08000031 59.08000031l0 61.84000031c0 32.64 26.44000031 59.08000031 59.08000031 59.08000032s59.08000031-26.44000031 59.08000031-59.08000032l0-61.84000031c0-32.59999969-26.44000031-59.08000031-59.08000031-59.08000031zM331.08000031 645.33333333c-32.64 0-59.08000031 26.47999969-59.08000031 59.08000031l0 61.84000031c0 32.64 26.44000031 59.08000031 59.08000031 59.08000032s59.08000031-26.44000031 59.08000031-59.08000032l0-61.84000031c0-32.59999969-26.44000031-59.08000031-59.08000031-59.08000031z"  horiz-adv-x="1024" />

    
    <glyph glyph-name="more" unicode="&#59244;" d="M510.73509781 804.39849c-231.47378062 0-419.12159531-187.64781469-419.12159531-419.12063625 0-231.47473969 187.64781469-419.12159531 419.12159531-419.12159531 231.47378062 0 419.12159531 187.64685563 419.12159531 419.12159531C929.85573406 616.7516343699999 742.20887844 804.39849 510.73509781 804.39849zM510.73509781-1.6038403100000096c-213.66921188 0-386.880735 173.22687188-386.880735 386.88169406 0 213.65386313 173.21152219 386.880735 386.880735 386.880735 213.67017187 0 386.880735-173.22783187 386.880735-386.880735C897.61583281 171.62303155999996 724.40430969-1.6038403100000096 510.73509781-1.6038403100000096zM458.80166844 592.7285625l-19.756845-19.74053625 187.69386375-187.7101725L439.04482344 197.56672218999995l19.756845-19.77123469L646.49553219 365.50565905999997l19.756845 19.77219469-19.756845 19.77219469L458.80166844 592.7285625z"  horiz-adv-x="1024" />

    
    <glyph glyph-name="qq" unicode="&#59176;" d="M510.17750714 813.23413496C508.59208646 813.23413496 507.00666579 813.21931801 505.40642817 813.18968408 486.57400065 812.74517358 469.06028852 810.80414418 452.77638747 807.55921805 382.5733668 793.80902735 335.14409947 755.9219179199999 304.68031501 708.30002925 274.11281101 660.41143444 265.97826939 618.46446266 255.65081003 575.62846992L256.62873281 574.05786619C253.62087887 557.41835728 251.73911732 542.33463508 250.58339019 529.6660866899999 248.5238251 528.5399935099999 239.39654376 523.2058675200001 231.32126998 513.0858464600001L231.35090391 513.20438214 230.40261507 511.91530153 229.05426661 510.09280865 227.29104157 507.41092869 226.12049748 505.51435102 224.46099117 502.41759447 223.46825144 500.40248028 222.04581819 496.90566498 221.21606504 494.72756336 220.1047888 490.83068843 219.49729088 488.51923419C219.18613387 487.11161704 218.97869559 485.62991595 218.77125731 484.13339705L218.4156494 481.76267494C218.23784504 480.11798559 218.19339415 478.38439531 218.16375938 476.6508042L218.07485762 474.45788563C218.08967458 471.9389931 218.25266199 469.33119878 218.57863595 466.60486793 218.57863595 466.60486793 196.94579282 455.72917768 209.55507335 409.24819917 209.55507335 409.24819917 211.62945539 406.24034524 215.34852679 401.54335109 195.55299347 374.01333578000003 131.73610637 276.50255503000005 153.48748603 190.29715726999996 153.48748603 190.29715726999996 155.85820814 184.75559299999998 161.78501422 184.75559299999998 163.77049451 184.75559299999998 166.17085136 185.37790783000003 169.00090093 187.03741333000005 176.4834946 191.45288439 185.87748206 205.41051338 203.49491378 225.87281158999997 203.49491378 225.87281158999997 208.50306579 136.15578155000003 294.72328053 71.16835034999997 287.5518447 70.33859717999997 280.48412844 69.16805311999997 273.81647096 67.47891286000004 273.81647096 67.47891286000004 212.74073164 47.727831270000024 212.74073164 13.115281910000022 212.74073164-21.512083579999967 279.07651129-37.32183938000003 279.07651129-37.32183938000003 279.07651129-37.32183938000003 313.2000993-45.10077310999998 356.0953599-45.10077310999998 398.32385475-45.10077310999998 449.04249998-37.55891157999997 484.11437595-7.658174170000052 490.02636592-2.6055721200000335 494.13067913 2.121055960000035 496.94591173 6.551343989999964 501.47991848 6.284637849999967 505.88057257 5.929029119999996 510.56274977 5.751225599999998 510.56274977 5.751225599999998 511.25914944 5.736407800000052 512.59268095 5.736407800000052 515.7042536 5.736407800000052 522.28300931 5.825310390000027 531.41029064 6.373539619999974 534.19588933 1.9877033300000448 538.28538642-2.650023000000033 544.13810687-7.658174170000052 579.2099837-37.57372938000003 629.92862891-45.08595613 672.15712375-45.08595613 672.66090211-45.08595613 673.1498635-45.08595613 673.65364266-45.08595613 676.91338576-45.174857900000006 680.23239755-45.23412573999997 683.58104324-45.23412573999997 704.53230369-45.23412573999997 727.11343567-43.204194580000035 748.86481451-37.381108049999966L749.17597152-37.32183938000003 749.73901854-37.17366976000005 751.10218395-36.81806102999997C759.45898083-34.580691590000015 794.84201467-24.19396353000002 809.30342199-4.457698909999976L810.5036-2.487035590000005C813.52627173 2.224775529999988 815.46730029 7.395914100000027 815.46730029 13.115281910000022 815.46730029 47.727831270000024 754.40637877 67.47891286000004 754.40637877 67.47891286000004 745.23464571 69.80518409000001 735.38132993 71.19798426 725.43911239 71.96846873000004 767.75650985 104.00285687999997 803.24326242 151.47657594999998 816.48967477 221.94630274999997 816.48967477 221.94630274999997 839.67830468 191.06764174 856.64378757 182.22188347999997 858.76262052 181.09579027999996 860.97035605 180.60682888999997 863.01510417 180.60682888999997 865.10430319 180.60682888999997 867.0008817 181.11060724000004 868.4825828 181.98481127000002 871.52007148 183.80730415000005 873.28329652 189.6748424 874.30567018 199.36517076999996 877.9951068 233.88881752999998 865.53399672 313.51546041999995 824.60939944 372.20565985999997 824.60939944 372.20565985999997 810.19244301 392.32716713 798.99077877 404.58083977 799.77608105 407.218268 800.27985939 409.78161227 800.27985939 412.22641917 800.27985939 434.97053857 783.1365721 441.89008522 783.1365721 446.82415157 783.1365721 451.77303491 793.95299368 470.5610107 792.17495167 496.26853315 791.96751339 499.17266834 791.37483245 501.75082874 790.6339819 504.19563648L790.01166703 506.07739803C789.31526736 507.98879268 788.50033199 509.75201772 787.55204316 511.38188926L786.94454526 512.50798246C785.92217078 514.12303706 784.81089454 515.64918987 783.61071652 516.9827213799999L783.62553349 516.81973395C775.65397926 525.8729304999999 765.08944686 528.9104191900001 765.08944686 528.9104191900001 765.08944686 528.9104191900001 762.34829905 593.8237656 746.56817722 642.30504052L747.23494295 641.65309257C744.58269693 649.7876341799999 741.57484299 657.98144365 738.16692945 666.10116831 722.99430464 701.91389569 699.37598206 735.9485810799999 665.26721104 762.05616229 644.86418065 777.7473824 620.71244496 790.59373514 592.32304256 799.24687207 568.3639282 806.55166137 541.11543598 813.23413496 510.17750714 813.23413496"  horiz-adv-x="1024" />

    
    <glyph glyph-name="close1" unicode="&#58940;" d="M579.04920533 384l318.49436694 318.49436693c18.51665707 18.51447467 18.51665707 48.53363947 0 67.05029654-18.51447467 18.51665707-48.53363947 18.51665707-67.05029654 0L511.9989088 451.05138773 193.50454187 769.54575467c-18.51447467 18.51665707-48.53363947 18.51665707-67.05029654 0-18.51447467-18.51665707-18.51447467-48.53582187 0-67.05029654l318.49436694-318.49436693L126.45315307 65.50563307000004c-18.51447467-18.51665707-18.51447467-48.53582187 0-67.05029654 18.51665707-18.51665707 48.53582187-18.51665707 67.05029653 0l318.49436693 318.49436694 318.49436694-318.49436694c18.51665707-18.51665707 48.53582187-18.51665707 67.05029653 0 18.51665707 18.51447467 18.51665707 48.53363947 0 67.05029654L579.04920533 384z"  horiz-adv-x="1024" />

    
    <glyph glyph-name="videocamera" unicode="&#59528;" d="M933.875 640.13839297l0-512.27678595q0-19.77539063-18.36286249-27.77971563-6.12095389-2.35421329-11.77106561-2.35421329-12.71275076 0-21.18791877 8.94601016l-189.74958123 189.74958124 0-78.15987734q0-56.03027344-39.78620233-95.81647578t-95.81647577-39.78620233l-331.47321406 0q-56.03027344 0-95.81647576 39.78620233t-39.78620233 95.81647578l0 331.47321404q0 56.03027344 39.78620233 95.81647578t95.81647577 39.78620232l331.47321405 0q56.03027344 0 95.81647576-39.78620232t39.78620234-95.81647578l0-77.68903435 189.74958124 189.27873906q8.47516718 8.94601016 21.18791876 8.94601016 5.65011172 0 11.7710656-2.35421328 18.36286249-8.00432501 18.3628625-27.77971563z"  horiz-adv-x="1024" />

    
    <glyph glyph-name="erweimacode" unicode="&#58925;" d="M204.824 689.8489999999999l138.22 0L343.044 551.63l-138.22 0L204.824 689.8489999999999zM681.111 689.8489999999999l138.22 0L819.331 551.63l-138.22 0L681.111 689.8489999999999zM204.824 216.23299999999995l138.22 0 0-138.261-138.22 0L204.824 216.23299999999995zM856.672 349.11300000000006l103.125 0 0-103.125L856.672 245.98800000000006 856.672 349.11300000000006zM753.55 245.98800000000006l103.123 0 0-103.123L753.55 142.865 753.55 245.98800000000006zM856.672 142.865l103.125 0L959.797 39.74000000000001 856.672 39.74000000000001 856.672 142.865zM753.55 7.866999999999962l206.248 0 0-68.073L753.55-60.20600000000002 753.55 7.866999999999962zM540.688 142.865l135.55 0 0-67.013-68.579 0 0-136.058-66.969 0L540.69 142.865 540.688 142.865zM540.688 349.11300000000006l0-171.706 66.969 0L607.657 282.1l136.1 0 0 67.012L540.688 349.11199999999997zM483.467 411.206L64.358 411.206 64.358 830.315l419.108 0L483.467 411.206zM438.709 785.556L109.117 785.556l0-329.591 329.591 0L438.708 785.556 438.709 785.556zM959.797 411.206L540.688 411.206 540.688 830.315l419.108 0L959.797 411.206zM915.037 785.556L585.446 785.556l0-329.591 329.591 0L915.037 785.556zM483.467-62.45399999999995L64.358-62.45399999999995l0 419.11 419.108 0L483.467-62.45399999999995zM438.709 311.898L109.117 311.898l0-329.591 329.591 0L438.708 311.898 438.709 311.898z"  horiz-adv-x="1024" />

    
    <glyph glyph-name="calendar2" unicode="&#59136;" d="M839.03552246 711.03552246l-109.01184082-2e-8L730.02368164 792.79440307C730.02368164 809.1461792 719.12249756 820.04736329 702.77072144 820.04736329 686.41894531 820.04736329 675.51776123 809.1461792 675.51776123 792.79440307L675.51776123 711.03552246 348.48223877 711.03552246 348.48223877 792.79440307C348.48223877 809.1461792 337.58105469 820.04736329 321.22927856 820.04736329 304.87750244 820.04736329 293.97631836 809.1461792 293.97631836 792.79440307L293.97631836 711.03552246 184.96447754 711.03552246C125.00796509 711.03552246 75.95263671 661.9801940899999 75.95263671 602.02368164l2e-8-109.01184083 0-54.5059204 0-381.54144287c0-59.95651245 49.05532836-109.01184083 109.01184083-109.01184083l654.0710449 0c59.95651245 0 109.01184083 49.05532836 109.01184083 109.01184083L948.04736329 438.50592041 948.04736329 493.01184083 948.04736329 602.02368164C948.04736329 661.9801940899999 898.99203491 711.03552246 839.03552246 711.03552246zM184.96447754 656.52960205l109.01184082 0 0-54.50592041c0-16.35177613 10.90118409-27.25296021 27.2529602-27.2529602C337.58105469 574.77072144 348.48223877 585.67190553 348.48223877 602.02368164L348.48223877 656.52960205l327.03552246 0 0-54.50592041c0-16.35177613 10.90118409-27.25296021 27.25296021-27.2529602C719.12249756 574.77072144 730.02368164 585.67190553 730.02368164 602.02368164L730.02368164 656.52960205l109.01184082 0c27.25296021 0 54.50592041-21.80236818 54.50592041-54.50592041l0-109.01184083L130.45855713 493.01184083 130.45855713 602.02368164C130.45855713 634.72723389 152.26092529 656.52960205 184.96447754 656.52960205zM839.03552246 2.458557130000031L184.96447754 2.458557130000031c-27.25296021 0-54.50592041 21.80236818-54.50592041 54.50592041L130.45855713 438.50592041l763.08288574 0 0-381.54144287C893.54144287 24.260925290000046 871.73907471 2.458557130000031 839.03552246 2.458557130000031zM239.47039795 329.49407958999996l109.01184082 0 0-54.50592042-109.01184082 0 0 54.50592042ZM239.47039795 165.97631836000005l109.01184082 0 0-54.50592041-109.01184082 0 0 54.50592041ZM457.49407959 329.49407958999996l109.01184082 0 0-54.50592042-109.01184082 0 0 54.50592042ZM457.49407959 165.97631836000005l109.01184082 0 0-54.50592041-109.01184082 0 0 54.50592041ZM675.51776123 329.49407958999996l109.01184082 0 0-54.50592042-109.01184082 0 0 54.50592042ZM675.51776123 165.97631836000005l109.01184082 0 0-54.50592041-109.01184082 0 0 54.50592041Z"  horiz-adv-x="1024" />

    
    <glyph glyph-name="jiantou-right" unicode="&#59305;" d="M2.21946013 315.77722716000005h651.38927011v-272.68352041l368.41227428 339.90813808-368.41227428 339.95577728v-272.63814972h-651.38927011v-134.54224523z"  horiz-adv-x="1025" />

    
    <glyph glyph-name="right-yinghao" unicode="&#58886;" d="M774.08746744 400.09101563h-200.43720703v383.4290039h383.44394531c0-63.86484375 0-177.14970703 0-339.85634766 11.70878906-214.85742188-95.86054687-377.57724609-322.44082031-488.00126953l-87.14707031 130.71445313c145.28583984 75.56484375 220.85947266 180.13623047 226.58291015 313.71416015zM286.06774088 400.09101563h-200.43720703v383.4290039h383.44394531c0-63.86484375 0-177.14970703 0-339.85634766 11.71582031-214.85742188-95.86054687-377.57724609-322.43994141-488.00039062l-87.14707031 130.71445312c151.13583984 81.42802734 226.58115234 185.99941406 226.58115235 313.71416016z"  horiz-adv-x="1040" />

    
    <glyph glyph-name="close" unicode="&#58910;" d="M1024 896H0c0-564.906667 459.093333-1024 1024-1024V896z m-42.666667-513.706667l-129.706666-128L682.666667 426.666667l-172.373334-168.96-126.293333 128L556.373333 554.666667 387.413333 727.04l129.706667 128 168.96-174.08 168.96 165.546667 126.293333-128-168.96-165.546667 168.96-170.666667z"  horiz-adv-x="1024" />

    
    <glyph glyph-name="more_right" unicode="&#58885;" d="M642.174 391.406c7.99-7.241 7.897-17.58-0.334-24.782L332.62 96.05499999999995c-8.867-7.759-9.766-21.236-2.007-30.103 7.758-8.867 21.236-9.766 30.103-2.007l309.221 270.569c27.429 24 27.792 64.127 0.89 88.507L360.992 703.808c-8.73 7.912-22.221 7.248-30.133-1.482-7.912-8.73-7.248-22.222 1.482-30.134l309.833-280.786z"  horiz-adv-x="1024" />

    
    <glyph glyph-name="next" unicode="&#59018;" d="M357.333 85.33333332999996l32-32 336 336-336 336-32-32 304-304z"  horiz-adv-x="1024" />

    
    <glyph glyph-name="Feedback" unicode="&#58909;" d="M716.73956908 424.1890528c0 27.88195627-22.60114987 50.48419733-50.48310507 50.48419733s-50.48310613-22.60224107-50.48310613-50.48419733c0-27.88522987 22.60114987-50.4863808 50.48310613-50.4863808s50.48310613 22.60114987 50.48310507 50.4863808zM352.90318721 424.1879616m-50.48528853 0a50.48528853 50.48528853 0 1 1 100.97057706 0 50.48528853 50.48528853 0 1 1-100.97057706 0ZM879.38030934 558.359504c-20.4355616 43.02907093-49.62516587 81.6189024-86.76872533 114.70198186-36.94381013 32.90952747-79.92157867 58.72740587-127.72716907 76.7419616-49.34791787 18.59088107-101.73682987 28.0173056-155.70190506 28.0173056s-106.34962133-9.42751573-155.6997216-28.0173056c-47.80886507-18.01455467-90.78336-43.83243413-127.72826134-76.7419616-37.141376-33.08308053-66.33425493-71.672912-86.76872533-114.70198186-21.25638933-44.767872-32.03521493-92.34096853-32.03521387-141.399632 0-82.8817984 31.7295872-163.0544288 89.619792-227.14450454l-33.14638826-141.10164586c-0.01855573-0.08295573-0.03929493-0.1615456-0.05566827-0.24450134-3.0573664-13.66154667 1.27599467-28.02276267 11.31039893-37.4732 7.037072-6.6321152 16.010512-10.15556373 25.2393696-10.15228906 3.38591573 0 6.80675947 0.47808853 10.17521067 1.44299733a23.5049344 23.5049344 0 0 1 2.97768533 1.0784288l145.38261227 63.8444832c11.95876587 5.2513344 17.39675093 19.20104427 12.14432533 31.15981013-5.2524256 11.95985707-19.20213653 17.39675093-31.1609024 12.14432534l-125.894496-55.2880064 31.96972267 136.08935466a23.6457408 23.6457408 0 0 1-6.04050773 21.86655254c-54.95618133 56.70699093-85.22093973 129.07520533-85.2209408 203.77273706 0 172.90218133 159.22098667 313.56394133 354.9317088 313.56394134 195.71290453 0 354.9328-140.66503467 354.9328-313.56394134 0-172.8945408-159.21989547-313.55957547-354.9328-313.5595744-25.69344533 0-51.32903893 2.43628693-76.19292374 7.24446187-12.82652907 2.48104-25.23172907-5.9040672-27.71167786-18.72841387-2.47776533-12.8232544 5.90734187-25.2273632 18.73168853-27.7084032 27.8153728-5.38231787 56.47122027-8.106768 85.17400427-8.106768 53.96725867 0 106.34962133 9.4231488 155.6975392 28.019488 47.813232 18.01237227 90.78336 43.8258848 127.73044373 76.73650454 37.14465067 33.08308053 66.33425493 71.672912 86.76545067 114.70198186 21.2607552 44.7667808 32.03739733 92.3453344 32.03739733 141.40509014-0.0010912 49.05975467-10.77773333 96.6328512-32.03412267 141.4007232zM560.06511468 424.1890528c0 27.88195627-22.60442453 50.48419733-50.4863808 50.48419733-27.88413867 0-50.4863808-22.60224107-50.4863808-50.48419733 0-27.88522987 22.60442453-50.4863808 50.4863808-50.4863808s50.4863808 22.60114987 50.4863808 50.4863808z"  horiz-adv-x="1024" />

    
    <glyph glyph-name="prev" unicode="&#60212;" d="M647.52324696 732.15179997L307.20486249 384l340.31838447-348.15179997 27.27189055 27.85214399L361.74864426 384 674.79513752 704.29965598 647.52324696 732.15179997z"  horiz-adv-x="1024" />

    
    <glyph glyph-name="right" unicode="&#58880;" d="M715.07373545 384.12524181l-35.31369162 35.33592372-0.1511789-0.14969719L344.23995617 754.70779735l-35.31369162-35.31369162 335.37261447-335.39410573L308.92626455 48.602930130000004l35.31369162-35.3099859 335.36890876 335.39336415 0.1511789-0.1496972 35.31369162 35.33962944-0.12524181 0.12450023L715.07373545 384.12524181zM715.07373545 384.12524181"  horiz-adv-x="1024" />

    
    <glyph glyph-name="tencent" unicode="&#59005;" d="M185.12108844 218.20952380999995c88.64217687 8.88163265 64.26122449 110.75918367 59.73333333 150.1170068 0 0-70.87891156 384.8707483 316.25578231 448.60952381l-48.76190476 2.26394558C271.49931973 819.54829932 76.62585034 624.67482993 76.62585034 384.17414966c0-26.99319728 2.6122449-53.63809524 7.14013606-79.23809524 0 0 12.71292517-95.60816326 101.35510204-86.72653061zM666.99319728 169.79591835999997c-46.49795918-33.26258503-123.99455783-108.4952381-287.52108844-97.52380952-163.35238095 11.14557823-257.74149659 118.77006802-257.74149659 118.77006803 71.40136055-143.49931973 219.25442177-242.24217687 390.26938775-242.24217687 121.38231293 0 231.2707483 49.63265306 309.98639455 129.74149659 0 0 41.62176871 49.11020408 1.74149661 109.01768708-39.70612245 59.38503402-110.23673469 15.49931973-156.73469388-17.76326531z m0 0M947.37414966 384.17414966C947.37414966 579.04761905 818.85170068 744.31564626 642.26394558 799.6952381c0 0-92.99591836 19.85306122-116.85442177-44.23401361-24.38095238-64.26122449 39.88027211-104.14149659 75.23265306-119.64081632 35.35238095-15.49931973 201.14285714-75.23265306 258.6122449-225.34965987 57.64353741-150.1170068 14.10612245-269.75782313 14.10612244-269.75782313 47.02040817 69.48571429 74.01360545 153.07755102 74.01360545 243.46122449z m0 0M491.10204082 578.17687075c-124.86530612-27.86394558-102.74829932-158.47619048-102.74829932-158.47619048-51.89659864-57.64353741-41.27346939-108.4952381-41.27346939-108.4952381 23.85850341 3.13469388 45.1047619 27.86394558 45.10476191 27.86394558 0.8707483-26.12244898 18.11156463-47.89115646 18.11156462-47.89115646-6.61768707-5.74693878-41.27346939-26.99319728-33.61088435-41.27346939 7.48843537-14.62857143 36.39727891-19.5047619 36.39727891-19.5047619 65.48027211-15.49931973 101.35510204 26.99319728 101.35510204 26.99319728 54.85714286-60.60408164 137.22993198-14.10612245 137.22993198-14.10612245-0.8707483 30.47619048-38.48707483 49.11020408-38.48707484 49.11020408 24.7292517 22.9877551 24.7292517 47.89115646 24.7292517 47.89115646 29.60544217-24.7292517 55.72789116-23.85850341 55.72789116-23.85850339-3.13469388 65.48027211-49.11020408 105.0122449-49.11020408 105.01224489 6.61768707 185.64353741-153.42585034 156.73469388-153.42585034 156.73469388z m0 0"  horiz-adv-x="1024" />

    
    <glyph glyph-name="tel1" unicode="&#59156;" d="M571.4375 756.375c172.59375 0 312.84375-140.34375 312.84375-312.84375 0-13.125 10.6875-23.625 23.625-23.625s23.625 10.6875 23.625 23.625c0 198.65625-161.625 360.28125-360.28125 360.28125-13.125 0-23.625-10.6875-23.625-23.625 0-13.125 10.6875-23.8125 23.8125-23.8125zM925.71875 171c-6.75 16.40625-18.75 27.1875-34.3125 31.3125-40.125 10.3125-79.875 24-118.5 40.40625-5.71875 2.4375-11.8125 3.65625-18.09375 3.65625-16.03125 0-30.5625-8.0625-38.90625-21.75l-16.21875-26.34375c-2.4375-3.9375-6.65625-6.375-11.15625-6.375-1.96875 0-3.84375 0.46875-5.71875 1.3125C648.6875 209.71875 559.53125 257.4375 472.4375 344.625 385.4375 431.71875 337.8125 520.59375 321.3125 554.8125c-2.90625 6-0.75 13.3125 5.0625 16.875l26.53125 16.3125c19.125 11.71875 26.8125 36.1875 18 57-16.40625 38.625-30.09375 78.46875-40.5 118.5-6.46875 24.75-30.46875 40.125-62.4375 40.125-16.40625 0-32.71875-4.21875-45.9375-11.90625L162.3125 751.78125c-27.9375-16.40625-49.78125-42.1875-61.40625-72.46875-11.625-30.1875-12.65625-64.03125-3-95.15625 27.1875-87.84375 91.125-223.96875 241.125-373.875 150-149.71875 285.75-213.375 373.3125-240.375 13.96875-4.3125 28.5-6.5625 43.125-6.5625 24.84375 0 49.5 6.46875 71.0625 18.5625 22.03125 12.375 40.40625 30.5625 53.25 52.3125l39.75 59.34375 0.1875 0.28125c13.3125 22.875 15.84375 53.8125 6 77.15625zM284.5625 751.78125c10.96875-41.90625 25.125-83.625 42.28125-123.9375l-25.40625-15.5625c-26.4375-16.3125-36.375-49.78125-22.875-77.71875 17.53125-36.375 68.15625-130.96875 160.40625-223.21875S625.90625 168.375 662.28125 150.84375c8.15625-3.84375 17.15625-6 26.25-6 21.1875 0 40.40625 10.78125 51.5625 28.78125l15.46875 25.03125c40.40625-17.0625 82.125-31.3125 123.9375-42.1875 0.09375 0 0.09375 0 0.1875-0.09375 0 0 0.9375-0.5625 2.15625-3.5625 3.84375-9.28125 2.71875-24.1875-2.71875-34.125l-39.46875-59.0625-0.75-1.21875c-17.0625-29.4375-49.125-47.71875-83.4375-47.71875-9.9375 0-19.6875 1.5-29.15625 4.40625-82.3125 25.5-210.5625 85.78125-353.625 228.75-143.0625 143.0625-203.71875 271.6875-229.40625 354.375-13.5 43.5 4.3125 90 43.21875 112.78125l0.84375 0.5625 59.4375 39.75c5.8125 3.09375 13.40625 4.96875 21.09375 4.96875 9.9375 0.09375 16.125-3.1875 16.6875-4.5zM565.8125 609.09375c94.40625 0 171.28125-76.875 171.28125-171.28125 0-13.125 10.6875-23.625 23.625-23.625s23.625 10.6875 23.625 23.625c0 120.5625-98.0625 218.625-218.625 218.625-13.125 0-23.625-10.6875-23.625-23.625-0.09375-13.03125 10.59375-23.71875 23.71875-23.71875z"  horiz-adv-x="1024" />

    
    <glyph glyph-name="left-yinghao" unicode="&#58946;" d="M260.57919922 367.90898437h200.43720703v-383.428125H77.57246094V324.33808594000004c-11.70878906 214.85742188 95.86142578 377.578125 322.44082031 488.00039062l87.14794922-130.71533203c-145.28671875-75.56484375-220.86035156-180.13623047-226.58203125-313.71416016z m488.01972656 1e-8h200.43720703v-383.42812501H565.59306641V324.33808594000004c-11.71582031 214.85742188 95.86054687 377.578125 322.4399414 488.00039062l87.14707031-130.71533203c-151.13671875-81.42802734-226.58115234-185.99853516-226.58115234-313.71416016z"  horiz-adv-x="1040" />

    
    <glyph glyph-name="addr1" unicode="&#59060;" d="M512-64c-6.7 0-13.1 3.2-17.1 8.5 0 0-255.7 335.9-256.3 336.6-1 1.3-2 2.6-3.1 4.1l-1.1 1.4c-0.8 1-1.5 2-2.1 3.1-41.6 58.3-63.6 127.1-63.6 199 0 91.7 35.7 177.9 100.5 242.8C334 796.3 420.3 832 512 832c91.7 0 177.9-35.7 242.8-100.6 64.9-64.9 100.6-151.1 100.6-242.8 0-71.9-22-140.7-63.7-199.1-0.5-1-1.2-1.9-1.8-2.8l-1.3-1.7c-1.6-2.2-3.3-4.3-4.9-6.5l-254.6-334c-4.1-5.3-10.5-8.5-17.1-8.5z m0 853c-80.2 0-155.6-31.3-212.4-88-56.7-56.7-87.9-132.1-87.9-212.4 0-63.6 19.7-124.5 57-175.9 0.2-0.3 0.5-0.7 0.7-1 0.2-0.2 0.4-0.6 0.7-0.9 0.8-1.1 1.7-2.3 2.7-3.6l0.4-0.5c0.5-0.7 1.1-1.4 1.6-2.1L512-7l237.6 312.1c1.6 2 3.1 4 4.6 6l0.2 0.3c0.3 0.5 0.6 0.9 0.9 1.4 37.3 51.4 57 112.3 57 175.9 0 80.2-31.2 155.6-88 212.4C667.6 757.8 592.2 789 512 789z m0-434.1c-74.2 0-134.7 60.4-134.7 134.7 0 74.2 60.4 134.7 134.7 134.7s134.7-60.4 134.7-134.7c-0.1-74.2-60.5-134.7-134.7-134.7z m0 226.4c-50.5 0-91.7-41.1-91.7-91.7 0-50.5 41.1-91.7 91.7-91.7 50.5 0 91.7 41.1 91.7 91.7-0.1 50.5-41.2 91.7-91.7 91.7z m0-644.6c-6.5 0-12.6 3-16.5 8.2L241 279.1l-0.1 0.1c-0.6 0.8-1.2 1.5-1.7 2.3-1 1.3-2.1 2.7-3.1 4.1L235 287c-0.8 0.9-1.5 2-2 3-41.6 58.3-63.5 126.9-63.5 198.6 0 91.5 35.6 177.5 100.3 242.3C334.4 795.6 420.4 831.3 512 831.3c91.5 0 177.6-35.6 242.3-100.4 64.7-64.7 100.4-150.8 100.4-242.2 0-71.7-22-140.4-63.6-198.6-0.5-1-1.1-1.9-1.8-2.7l-1.3-1.7c-1.6-2.2-3.3-4.3-4.9-6.5L528.5-55.10000000000002c-3.9-5.1-10-8.2-16.5-8.2zM274.1 304.20000000000005L512-8.200000000000045l238 312.6c0.1 0.1 0.2 0.2 0.2 0.3 1.5 1.9 3 3.9 4.5 5.9 0.1 0.1 0.2 0.3 0.3 0.4 0.3 0.4 0.6 0.9 0.9 1.3 37.4 51.6 57.2 112.5 57.2 176.3 0 80.4-31.3 156-88.2 212.9-56.9 56.9-132.5 88.2-212.9 88.2s-156-31.3-212.9-88.2C242.3 644.7 211 569.1 211 488.6c0-63.8 19.7-124.8 57.1-176.3 0.2-0.3 0.4-0.6 0.7-1 0.2-0.3 0.5-0.6 0.7-0.9 0.8-1.1 1.8-2.4 2.7-3.6 0.6-0.8 1.3-1.7 1.9-2.6zM512 355.70000000000005c-73.9 0-133.9 60.1-133.9 133.9 0 73.9 60.1 133.9 133.9 133.9 73.9 0 133.9-60.1 133.9-133.9 0-73.8-60.1-133.9-133.9-133.9z m0 226.3c-50.9 0-92.4-41.4-92.4-92.4 0-50.9 41.4-92.4 92.4-92.4 50.9 0 92.4 41.4 92.4 92.4-0.1 50.9-41.5 92.4-92.4 92.4z m0 0"  horiz-adv-x="1024" />

    
    <glyph glyph-name="weixin" unicode="&#58881;" d="M387.594 725.308c-166.026 0-302.248-111.085-302.248-252.124 0-81.733 45.156-148.264 121.02-200.194l-30.406-89.41 105.817 51.93c37.78-7.225 68.036-14.901 105.817-14.901 9.031 0 18.664 0.451 28.147 1.204-6.02 19.568-9.483 40.942-9.483 62.165 0 129.449 113.193 234.664 257.092 234.664 9.483 0 19.116-0.452 29.05-1.656-26.491 119.815-156.542 208.322-304.806 208.322z m-100.85-208.472c-23.632 0-42.748 19.116-42.748 42.748s19.116 42.748 42.748 42.748 42.748-19.116 42.748-42.748-19.116-42.748-42.748-42.748z m210.129 0c-23.632 0-42.749 19.116-42.749 42.748s19.117 42.748 42.749 42.748 42.748-19.116 42.748-42.748-19.267-42.748-42.748-42.748zM682.014 502.988c-143.447 0-256.64-96.636-256.64-215.548 0-118.761 113.193-215.095 256.64-215.095 30.406 0 60.66 7.676 90.615 14.901l83.238-44.705-23.03 74.057c60.66 44.705 105.817 103.86 105.817 170.842 0 118.912-121.02 215.548-256.64 215.548zM602.84 320.405c-18.815 0-34.169 15.353-34.169 34.168s15.354 34.168 34.169 34.168 34.168-15.353 34.168-34.168-15.353-34.168-34.168-34.168z m166.026 0c-18.816 0-34.169 15.353-34.169 34.168s15.353 34.168 34.169 34.168 34.168-15.353 34.168-34.168-15.203-34.168-34.168-34.168z"  horiz-adv-x="1024" />

    
    <glyph glyph-name="sina" unicode="&#58882;" d="M738.563 404.293c-12.717 3.813-21.433 6.404-14.764 23.108 14.41 36.262 15.909 67.55 0.271 89.865-29.306 41.878-109.487 39.609-201.39 1.13 0 0.05-28.858-12.627-21.487 10.269 14.141 45.443 12.012 83.518-9.99 105.489-49.868 49.899-182.464-1.882-296.168-115.553-85.154-85.175-134.599-175.424-134.599-253.473 0-149.282 191.435-240.04 378.716-240.04 245.515 0 408.832 142.644 408.832 255.894-0.001 68.423-57.64 107.255-109.42 123.31zM454.21 63.548c-149.444-14.745-309.734 91.784-319.443 189.903-9.707 98.1 118.291 181.702 268.195 190.38 175.686 10.168 325.599-72.994 335.286-171.071 9.693-98.149-134.575-194.425-284.039-209.212z m447.388 613.935c-59.29 65.735-146.744 90.794-227.46 73.631h-0.034c-18.68-3.998-30.588-22.374-26.588-41.017 3.98-18.66 22.35-30.584 41.03-26.602 57.423 12.195 119.57-5.64 161.717-52.337 42.11-46.69 53.547-110.38 35.512-166.207l0.012-0.011c-5.88-18.188 4.068-37.643 22.275-43.522 18.136-5.874 37.633 4.063 43.517 22.206 0 0.034 0 0.104 0.01 0.133 25.305 78.535 9.316 168.057-49.99 233.726m-91.05-82.164c-28.855 32.013-71.466 44.172-110.798 35.81-16.075-3.426-26.321-19.248-22.874-35.34 3.438-16.02 19.248-26.317 35.286-22.824v-0.033c19.225 4.063 40.073-1.866 54.18-17.488 14.123-15.653 17.917-36.978 11.858-55.695h0.03c-5.037-15.62 3.513-32.418 19.147-37.478 15.639-5.004 32.413 3.52 37.462 19.18 12.36 38.253 4.626 81.859-24.29 113.868M454.59 358.37800000000004c-71.115 18.5-151.491-16.94-182.38-79.598-31.46-63.91-1.04-134.85 70.808-158.041 74.422-23.998 162.144 12.777 192.644 81.764 30.077 67.425-7.48 136.855-81.072 155.875z m-54.303-163.205c-14.457-23.061-45.41-33.166-68.723-22.52-22.979 10.463-29.76 37.244-15.304 59.731 14.28 22.392 44.195 32.368 67.334 22.669 23.411-9.98 30.886-36.59 16.693-59.88z m47.619 61.115c-5.229-8.929-16.783-13.231-25.834-9.505-8.901 3.66-11.69 13.657-6.631 22.437 5.204 8.734 16.308 13.003 25.188 9.477 9.023-3.3 12.264-13.408 7.277-22.41z"  horiz-adv-x="1024" />

    
    <glyph glyph-name="top" unicode="&#58883;" d="M169.472 212.48000000000002c17.408-17.408 45.568-17.408 62.464 0l279.04 279.04 279.04-279.04c17.408-17.408 45.568-17.408 62.464 0 17.408 17.408 17.408 45.568 0 62.464L542.208 585.216c-17.408 17.408-45.568 17.408-62.464 0L169.472 274.94399999999996c-8.704-8.704-12.8-19.968-12.8-31.232-0.512-11.264 4.096-22.528 12.8-31.232z"  horiz-adv-x="1024" />

    
    <glyph glyph-name="share" unicode="&#58884;" d="M768 209.91999999999996c-32.416 0-61.44-12.8-83.616-32.864L380.16 354.11199999999997c2.144 9.824 3.84 19.616 3.84 29.856s-1.696 20.064-3.84 29.856l300.8 175.36c23.04-21.344 53.344-34.56 87.04-34.56 70.816 0 128 57.184 128 128s-57.184 128-128 128-128-57.184-128-128c0-10.24 1.696-20.064 3.84-29.856l-300.8-175.36c-23.04 21.344-53.344 34.56-87.04 34.56-70.816 0-128-57.184-128-128s57.184-128 128-128c33.696 0 64 13.216 87.04 34.56l303.776-177.504c-2.144-8.96-3.424-18.336-3.424-27.744 0-68.704 55.904-124.576 124.576-124.576s124.576 55.904 124.576 124.576c0 68.704-55.904 124.576-124.576 124.576z"  horiz-adv-x="1024" />

    
    <glyph glyph-name="tel" unicode="&#60213;" d="M662.94362952 234.13006339000003c-13.16640094 7.29232624-27.66515796 14.04292468-44.6656183 14.04292469-22.74862065 0-39.2903213-11.41725854-62.20585297-27.20932659-12.16689113-8.41482307-27.24934551-18.83257085-48.24882375-31.53826049-1.54123667-0.91751942-4.16495218-2.16788319-9.12443579-2.16788319-15.37430401 0-34.58266743 11.20740025-40.24981217 15.25034119l-0.83259973 0.624694-1.2484122 0.78965248c-0.41776403 0.25182975-37.83302756 23.75105974-63.50014073 49.20733788-25.74812778 25.58219351-49.83105609 62.66363688-50.08093329 63.04040523l-0.66666545 1.04148223-0.70961368 0.95949088c-6.99852407 9.29134682-20.62466146 36.49872086-13.04048654 48.66268366 12.79060837 20.62466146 23.29132424 35.54118156 31.70712311 47.50114275 13.62418486 19.37332095 22.6656535 32.16490607 26.24983569 48.49772517 4.83259342 22.16492234-3.25036109 40.70662029-12.70861798 57.58116529-55.45623032 97.70311147-110.45467671 147.28624193-163.4531258 147.28624192-6.74864685 0-13.33233522-0.87457121-19.4982605-2.58369562-36.54166811-10.04000362-67.49915863-43.33131065-84.91347793-91.28828477-16.95946468-46.49772785-19.04242913-100.78948987-5.91702292-152.87139628 13.45825057-53.37229006 34.08291205-105.20236672 61.37227744-153.9938931 28.62464884-51.20538267 63.95694791-97.9129688 104.95541784-138.74550446l0.16691007-0.16691007c41.33131428-40.58070494 88.58062728-75.49719346 140.45267539-103.82901593 49.3313007-26.95847263 101.74702821-47.33032854 155.66202092-60.57969663 22.74862065-5.62517423 45.95600101-8.50267013 69.03941949-8.50267013 87.12138101 0 161.99485627 41.33229007 177.99287848 98.24874245l0.08394293 0.16691007c4.37578625 15.998998 5.20838599 41.91403585-15.87405939 74.45473544C771.14745591 162.88371757000004 727.1504556 198.58985761999998 662.94362952 234.13006339000003zM519.61540982 536.2457265c74.41471557 0 134.95341652-61.37422902 134.95341652-136.78845535 0-21.62319548 17.74911715-39.16440689 39.62414238-39.16440689 21.83110123 0 39.54019946 17.5412114 39.54019946 39.16440689 0 118.58057849-96.03791104 215.03430103-214.11775836 215.03430104-21.87404945 0-39.58217092-17.49923994-39.58217092-39.12243543C480.0332389 553.74496548 497.74136037 536.2457265 519.61540982 536.2457265zM818.35479743 697.32208661C744.44178884 771.82074605 646.02711211 812.86216229 541.2395811 812.86216229c-21.87404945 0-39.58217092-17.50021573-39.58217093-39.12536375 0-21.58415235 17.70812148-39.124387 39.58217093-39.124387 83.33124561 0 161.66103517-32.70760872 220.57553232-92.07891305 59.12337869-59.58311419 91.70507301-138.9534102 91.70507301-223.45205243 0-21.62319548 17.70714569-39.124387 39.58217092-39.124387 21.87502524 0 39.58217092 17.50119152 39.58217092 39.12438701C932.68452827 524.20474977 892.06087512 623.03523894 818.35479743 697.32208661z"  horiz-adv-x="1024" />

    


  </font>
</defs>
</svg>
